<?xml version="1.0" standalone="no"?>
<!DOCTYPE svg PUBLIC "-//W3C//DTD SVG 1.1//EN" "http://www.w3.org/Graphics/SVG/1.1/DTD/svg11.dtd" >
<svg xmlns="http://www.w3.org/2000/svg">
<metadata>Generated by IcoMoon</metadata>
<defs>
<font id="icomoon" horiz-adv-x="1024">
<font-face units-per-em="1024" ascent="960" descent="-64" />
<missing-glyph horiz-adv-x="1024" />
<glyph unicode="&#x20;" horiz-adv-x="512" d="" />
<glyph unicode="&#xe900;" glyph-name="text-align-justify" d="M48 840h928c16 0 28.8 12.8 28.8 28.8s-12.8 27.2-28.8 27.2h-928c-16 0-27.2-12.8-27.2-27.2s11.2-28.8 27.2-28.8zM976 616h-928c-16 0-28.8-12.8-28.8-28.8s12.8-27.2 28.8-27.2h928c16 0 28.8 12.8 28.8 28.8s-12.8 27.2-28.8 27.2zM976 336h-928c-16 0-28.8-12.8-28.8-28.8s12.8-27.2 28.8-27.2h928c16 0 28.8 12.8 28.8 28.8s-12.8 27.2-28.8 27.2zM686.4 56h-638.4c-16 0-28.8-12.8-28.8-28.8s12.8-27.2 28.8-27.2h638.4c16 0 28.8 12.8 28.8 28.8s-14.4 27.2-28.8 27.2z" />
<glyph unicode="&#xe901;" glyph-name="call-to-action" d="M278.4 408c51.2 0 94.4 41.6 94.4 94.4s-41.6 94.4-94.4 94.4c-52.8 0-94.4-41.6-94.4-94.4s43.2-94.4 94.4-94.4zM278.4 563.2c33.6 0 62.4-27.2 62.4-62.4s-27.2-62.4-62.4-62.4c-35.2 0-62.4 27.2-62.4 62.4s28.8 62.4 62.4 62.4zM784.003 283.2h-564.8c-9.6 0-16-6.4-16-16s6.4-16 16-16h564.8c9.6 0 16 6.4 16 16s-6.4 16-16 16zM783.997 595.2h-155.2c-9.6 0-16-6.4-16-16s6.4-16 16-16h155.2c9.6 0 16 6.4 16 16s-6.4 16-16 16zM783.997 440h-155.2c-9.6 0-16-6.4-16-16s6.4-16 16-16h155.2c9.6 0 16 6.4 16 16 0 8-6.4 16-16 16zM912 774.4h-800c-44.8 0-80-35.2-80-80v-492.8c0-44.8 35.2-80 80-80h800c44.8 0 80 35.2 80 80v492.8c0 44.8-35.2 80-80 80zM960 201.6c0-27.2-20.8-48-48-48h-800c-27.2 0-48 20.8-48 48v492.8c0 27.2 20.8 48 48 48h800c27.2 0 48-20.8 48-48v-492.8z" />
<glyph unicode="&#xe902;" glyph-name="button" d="M348.8 696c8 1.6 14.4 9.6 14.4 17.6-4.8 38.4 4.8 75.2 25.6 107.2 49.6 76.8 152 99.2 227.2 49.6 52.8-33.6 81.6-94.4 75.2-156.8-1.6-8 4.8-16 14.4-17.6h1.6c8 0 14.4 6.4 16 14.4 8 75.2-25.6 147.2-89.6 187.2-91.2 57.6-214.4 32-272-59.2-24-38.4-35.2-83.2-30.4-128 0-9.6 8-16 17.6-14.4zM792.003 316.8c-78.4 99.2-180.8 144-216 156.8v22.4c0 14.4 0 28.8 0 41.6 0 14.4 0 27.2 0 41.6v22.4c0 24 0 46.4 0 68.8 0 28.8-22.4 52.8-51.2 56-28.8 1.6-52.8-17.6-56-48l-4.8-41.6c-12.8-83.2-27.2-168-41.6-249.6-3.2-11.2-4.8-19.2-9.6-25.6-4.8-8-9.6-11.2-11.2-12.8-4.8 8-12.8 22.4-19.2 36.8-16 32-24 46.4-30.4 51.2-12.8 14.4-32 33.6-60.8 38.4-14.4 3.2-33.6 0-44.8-8-12.8-8-20.8-16-22.4-27.2-1.6-9.6 0-20.8 8-32 20.8-32 38.4-68.8 52.8-112 1.6-6.4 4.8-14.4 8-22.4 3.2-9.6 8-20.8 9.6-28.8 6.4-24 17.6-43.2 36.8-65.6 0 0 56-67.2 76.8-150.4 9.6-35.2 41.6-60.8 78.4-60.8l176 1.6c22.4 1.6 41.6 19.2 44.8 41.6l4.8 30.4 1.6 8c3.2 11.2 6.4 24 12.8 38.4 36.8 62.4 56 139.2 65.6 193.6 3.2 9.6 0 22.4-8 35.2zM769.603 288c-1.6 0-1.6-1.6 0 0-14.4-75.2-36.8-140.8-62.4-185.6 0 0 0-1.6-1.6-1.6-6.4-16-11.2-32-14.4-43.2l-3.2-8v-1.6l-4.8-32c-1.6-8-8-12.8-14.4-14.4l-176-1.6c-22.4 0-41.6 14.4-46.4 35.2-22.4 89.6-80 160-83.2 163.2-16 19.2-24 35.2-30.4 52.8-3.2 9.6-6.4 22.4-11.2 32-3.2 8-4.8 14.4-8 20.8-16 46.4-33.6 86.4-56 120-3.2 4.8-3.2 6.4-3.2 8s1.6 3.2 8 6.4c3.2 1.6 11.2 3.2 17.6 3.2 1.6 0 3.2 0 4.8 0 19.2-3.2 32-17.6 43.2-30.4 4.8-4.8 16-28.8 24-44.8 8-14.4 14.4-28.8 20.8-38.4 8-14.4 19.2-17.6 27.2-17.6 17.6 0 30.4 16 40 28.8 8 11.2 11.2 25.6 14.4 36.8 16 83.2 28.8 169.6 41.6 251.2l6.4 43.2c1.6 12.8 11.2 20.8 22.4 20.8 12.8-1.6 20.8-11.2 20.8-24 0-22.4 0-44.8 0-68.8v-22.4c0-14.4 0-28.8 0-41.6 0-14.4 0-27.2 0-41.6v-33.6c0-6.4 4.8-12.8 11.2-16 1.6 0 124.8-40 211.2-150.4 1.6-1.6 1.6-3.2 1.6-4.8z" />
<glyph unicode="&#xe903;" glyph-name="site-logo" d="M907.197 712l-363.2 209.6c-19.2 11.2-44.8 11.2-64 0l-363.2-209.6c-19.2-11.2-32-32-32-56v-419.2c0-22.4 12.8-44.8 32-56l363.2-206.4c9.6-6.4 20.8-8 32-8s22.4 3.2 32 8l363.2 209.6c19.2 11.2 32 32 32 56v417.6c0 22.4-12.8 43.2-32 54.4zM116.797 657.6c0 11.2 6.4 22.4 16 27.2l363.2 209.6c4.8 3.2 11.2 4.8 16 4.8s11.2-1.6 16-4.8l355.2-204.8-212.8-129.6c-6.4 6.4-12.8 12.8-19.2 16l-97.6 57.6c-25.6 14.4-57.6 14.4-83.2 0l-97.6-57.6c-25.6-14.4-40-41.6-40-70.4v-116.8c0-9.6 1.6-17.6 4.8-25.6l-220.8-124.8c0 0 0 0 0 1.6v417.6zM659.197 507.2v-116.8c0-17.6-9.6-33.6-24-43.2l-97.6-57.6c-16-9.6-35.2-9.6-49.6 0l-97.6 57.6c-14.4 9.6-24 25.6-24 43.2v116.8c0 17.6 9.6 33.6 24 43.2l97.6 57.6c8 4.8 16 6.4 25.6 6.4 8 0 17.6-1.6 25.6-6.4l97.6-57.6c12.8-9.6 22.4-27.2 22.4-43.2zM907.197 238.4c0-11.2-6.4-22.4-16-27.2l-363.2-209.6c-9.6-6.4-22.4-6.4-32 0l-361.6 209.6 219.2 124.8c6.4-6.4 12.8-12.8 20.8-17.6l97.6-57.6c12.8-8 27.2-11.2 41.6-11.2s28.8 3.2 41.6 11.2l97.6 57.6c25.6 14.4 40 41.6 40 70.4v116.8c0 9.6-1.6 17.6-4.8 25.6l219.2 132.8c0-3.2 1.6-4.8 1.6-8v-417.6h-1.6z" />
<glyph unicode="&#xe904;" glyph-name="post-navigation" d="M332.797 464h-265.6c1.6 3.2 3.2 6.4 6.4 9.6l105.6 124.8c6.4 6.4 4.8 17.6-1.6 22.4-6.4 6.4-17.6 4.8-22.4-1.6l-105.6-124.8c-22.4-27.2-22.4-67.2 0-92.8l105.6-124.8c3.2-3.2 8-6.4 12.8-6.4 3.2 0 8 1.6 9.6 3.2 6.4 6.4 8 16 1.6 22.4l-105.6 124.8c-3.2 3.2-4.8 6.4-6.4 9.6h265.6c9.6 0 16 6.4 16 16s-8 17.6-16 17.6zM974.397 494.4l-105.6 124.8c-6.4 6.4-16 8-22.4 1.6s-8-16-1.6-22.4l105.6-124.8c3.2-3.2 4.8-6.4 6.4-9.6h-265.6c-9.6 0-16-6.4-16-16s6.4-16 16-16h265.6c-1.6-3.2-3.2-6.4-6.4-9.6l-105.6-124.8c-6.4-6.4-4.8-17.6 1.6-22.4 3.2-3.2 6.4-3.2 9.6-3.2 4.8 0 9.6 1.6 12.8 6.4l105.6 124.8c24 25.6 24 64 0 91.2zM512 641.6c-9.6 0-16-6.4-16-16v-355.2c0-9.6 6.4-16 16-16s16 6.4 16 16v355.2c0 8-6.4 16-16 16z" />
<glyph unicode="&#xe905;" glyph-name="badge-2" d="M903.997 350.4l-65.6 228.8c-22.4 80-6.4 164.8 46.4 228.8 4.8 6.4 4.8 16-1.6 20.8l-92.8 92.8c-6.4 6.4-14.4 6.4-20.8 1.6-35.2-27.2-78.4-41.6-123.2-41.6-46.4 0-88 14.4-124.8 41.6-6.4 4.8-14.4 4.8-19.2 0-35.2-27.2-78.4-41.6-124.8-41.6-44.8 0-88.001 14.4-123.201 41.6-6.4 4.8-14.4 4.8-20.8-1.6l-92.8-92.8c-4.8-4.8-6.4-14.4-1.6-20.8 51.2-64 68.8-150.4 46.4-228.8l-65.6-228.8c-22.4-75.2-6.4-158.4 41.6-220.8s123.2-100.8 201.601-100.8c35.2 0 68.8-9.6 97.6-28.8l43.2-28.8c3.2-1.6 6.4-3.2 9.6-3.2s6.4 1.6 9.6 3.2l43.2 28.8c28.8 19.2 62.4 28.8 97.6 28.8 78.4 0 153.6 36.8 201.6 100.8 44.8 62.4 59.2 145.6 38.4 220.8zM836.797 148.8c-41.6-54.4-107.2-88-176-88-41.6 0-81.6-12.8-115.2-35.2l-33.6-22.4-33.6 22.4c-33.6 22.4-73.6 35.2-115.2 35.2-68.801 0-134.401 32-176.001 88-41.6 54.4-54.4 126.4-35.2 193.6l65.6 228.8c24 84.8 8 176-43.2 246.4l73.6 73.6c38.4-25.6 83.201-40 131.201-40s94.4 14.4 134.4 41.6c40-27.2 86.4-41.6 134.4-41.6s92.8 12.8 131.2 40l72-75.2c-51.2-70.4-67.2-161.6-43.2-246.4l65.6-228.8c17.6-65.6 4.8-137.6-36.8-192zM671.994 500.8l-100.8 14.4-44.8 92.8c-4.8 11.2-24 11.2-28.8 0l-44.8-91.2-100.8-16c-6.4-1.6-11.2-4.8-12.8-11.2s0-12.8 4.8-16l73.6-70.4-17.6-100.8c-1.6-6.4 1.6-12.8 6.4-16s11.2-4.8 17.6-1.6l89.6 48 89.6-48c1.6-1.6 4.8-1.6 8-1.6s6.4 1.6 9.6 3.2c4.8 3.2 8 9.6 6.4 16l-19.2 100.8 73.6 70.4c4.8 4.8 6.4 11.2 4.8 16-3.2 6.4-8 11.2-14.4 11.2zM579.194 419.2c-3.2-3.2-4.8-8-3.2-12.8l12.8-76.8-68.8 36.8c-1.6 1.6-4.8 1.6-8 1.6s-4.8 0-8-1.6l-68.8-36.8 12.8 76.8c1.6 4.8-1.6 11.2-4.8 14.4l-56 54.4 76.8 11.2c4.8 0 9.6 4.8 12.8 8l35.2 70.4 35.2-70.4c1.6-4.8 6.4-8 12.8-8l76.8-11.2-57.6-56z" />
<glyph unicode="&#xe906;" glyph-name="rates" d="M728 763.2h-86.4v76.8c0 4.8-1.6 8-4.8 11.2l-70.4 70.4c-3.2 4.8-6.4 6.4-11.2 6.4h-158.4c-9.6 0-16-6.4-16-16v-148.8h-86.4c-48 0-86.4-38.4-86.4-86.4v-624c0-48 38.4-84.8 86.4-84.8h433.6c48 0 84.8 38.4 84.8 84.8v624c1.6 48-36.8 86.4-84.8 86.4zM412.8 896h136l62.4-62.4v-188.8h-198.4v251.2zM782.4 52.8c0-28.8-24-52.8-52.8-52.8h-433.6c-28.8 0-54.4 24-54.4 52.8v624c0 28.8 24 54.4 54.4 54.4h86.4v-102.4c0-9.6 6.4-16 16-16h228.8c9.6 0 16 6.4 16 16v102.4h86.4c28.8 0 52.8-24 52.8-54.4v-624zM662.4 508.8h-300.8c-9.6 0-16-6.4-16-16s6.4-16 16-16h300.8c9.6 0 16 6.4 16 16s-6.4 16-16 16zM401.6 358.4h-3.2c-9.6 0-16-6.4-16-16s6.4-16 16-16h3.2c9.6 0 16 6.4 16 16s-8 16-16 16zM401.6 243.2h-3.2c-9.6 0-16-6.4-16-16s6.4-16 16-16h3.2c9.6 0 16 6.4 16 16s-8 16-16 16zM513.6 358.4h-3.2c-9.6 0-16-6.4-16-16s6.4-16 16-16h3.2c9.6 0 16 6.4 16 16s-6.4 16-16 16zM513.6 243.2h-3.2c-9.6 0-16-6.4-16-16s6.4-16 16-16h3.2c9.6 0 16 6.4 16 16s-6.4 16-16 16zM625.597 358.4h-3.197c-9.6 0-16-6.4-16-16s6.4-16 16-16h3.197c9.6 0 16 6.4 16 16s-6.4 16-16 16zM625.597 243.2h-3.197c-9.6 0-16-6.4-16-16s6.4-16 16-16h3.197c9.6 0 16 6.4 16 16s-6.4 16-16 16zM401.6 129.6h-3.2c-9.6 0-16-6.4-16-16s6.4-16 16-16h3.2c9.6 0 16 6.4 16 16s-8 16-16 16zM513.6 129.6h-3.2c-9.6 0-16-6.4-16-16s6.4-16 16-16h3.2c9.6 0 16 6.4 16 16s-6.4 16-16 16zM625.597 129.6h-3.197c-9.6 0-16-6.4-16-16s6.4-16 16-16h3.197c9.6 0 16 6.4 16 16s-6.4 16-16 16z" />
<glyph unicode="&#xe907;" glyph-name="calendar-1" d="M284.8 355.2h-52.8c-9.6 0-16-6.4-16-16v-51.2c0-9.6 6.4-16 16-16h52.8c9.6 0 16 6.4 16 16v51.2c0 9.6-6.4 16-16 16zM454.4 355.2h-52.8c-9.6 0-16-6.4-16-16v-51.2c0-9.6 6.4-16 16-16h52.8c9.6 0 16 6.4 16 16v51.2c0 9.6-8 16-16 16zM622.403 355.2h-52.803c-9.6 0-16-6.4-16-16v-51.2c0-9.6 6.4-16 16-16h52.803c9.6 0 16 6.4 16 16v51.2c0 9.6-6.4 16-16 16zM792.003 355.2h-52.8c-9.6 0-16-6.4-16-16v-51.2c0-9.6 6.4-16 16-16h52.8c9.6 0 16 6.4 16 16v51.2c0 9.6-8 16-16 16zM284.8 188.8h-52.8c-9.6 0-16-6.4-16-16v-51.2c0-9.6 6.4-16 16-16h52.8c9.6 0 16 6.4 16 16v51.2c0 9.6-6.4 16-16 16zM454.4 188.8h-52.8c-9.6 0-16-6.4-16-16v-51.2c0-9.6 6.4-16 16-16h52.8c9.6 0 16 6.4 16 16v51.2c0 9.6-8 16-16 16zM622.403 188.8h-52.803c-9.6 0-16-6.4-16-16v-51.2c0-9.6 6.4-16 16-16h52.803c9.6 0 16 6.4 16 16v51.2c0 9.6-6.4 16-16 16zM792.003 188.8h-52.8c-9.6 0-16-6.4-16-16v-51.2c0-9.6 6.4-16 16-16h52.8c9.6 0 16 6.4 16 16v51.2c0 9.6-8 16-16 16zM912 702.4h-384v67.2c36.8 8 65.6 40 65.6 78.4 0 43.2-36.8 80-81.6 80s-81.6-35.2-81.6-80c0-38.4 27.2-70.4 65.6-78.4v-67.2h-384c-44.8 0-80-35.2-80-80v-574.4c0-44.8 35.2-80 80-80h800c44.8 0 80 35.2 80 80v574.4c0 44.8-35.2 80-80 80zM462.4 848c0 25.6 22.4 48 49.6 48s49.6-20.8 49.6-48c0-27.2-22.4-48-49.6-48s-49.6 22.4-49.6 48zM112 670.4h800c27.2 0 48-20.8 48-48v-126.4h-896v126.4c0 27.2 20.8 48 48 48zM912 0h-800c-27.2 0-48 20.8-48 48v416h896v-416c0-27.2-20.8-48-48-48z" />
<glyph unicode="&#xe908;" glyph-name="appointment-calendar" d="M912 774.4h-112v56c0 9.6-6.4 16-16 16s-16-6.4-16-16v-54.4h-512v54.4c0 9.6-6.4 16-16 16s-16-6.4-16-16v-54.4h-112c-44.8 0-80-35.2-80-80v-564.8c0-44.8 35.2-80 80-80h800c44.8 0 80 35.2 80 80v563.2c0 44.8-35.2 80-80 80zM112 742.4h112v-52.8c0-9.6 6.4-16 16-16s16 6.4 16 16v52.8h512v-52.8c0-9.6 6.4-16 16-16s16 6.4 16 16v52.8h112c27.2 0 48-20.8 48-48v-128h-896v128c0 27.2 20.8 48 48 48zM912 81.6h-800c-27.2 0-48 20.8-48 48v404.8h896v-404.8c0-25.6-20.8-48-48-48zM521.6 390.4c-12.8 6.4-27.2 6.4-38.4-1.6l-41.6-27.2c-8-4.8-9.6-14.4-4.8-22.4s14.4-9.6 22.4-4.8l41.6 27.2c1.6 1.6 4.8 1.6 4.8 0 1.6 0 3.2-1.6 3.2-4.8v-136c0-9.6 6.4-16 16-16s16 6.4 16 16v136c0 14.4-6.4 27.2-19.2 33.6z" />
<glyph unicode="&#xe909;" glyph-name="calender-2" d="M912 782.4h-112v56c0 9.6-6.4 16-16 16s-16-6.4-16-16v-57.6h-512v57.6c0 9.6-6.4 16-16 16s-16-6.4-16-16v-57.6h-112c-44.8 0-80-35.2-80-80v-580.8c0-44.8 35.2-80 80-80h800c44.8 0 80 35.2 80 80v582.4c0 43.2-35.2 80-80 80zM112 750.4h112v-54.4c0-9.6 6.4-16 16-16s16 6.4 16 16v54.4h512v-54.4c0-9.6 6.4-16 16-16s16 6.4 16 16v54.4h112c27.2 0 48-20.8 48-48v-132.8h-896v132.8c0 25.6 20.8 48 48 48zM912 73.6h-800c-27.2 0-48 20.8-48 48v416h896v-416c0-27.2-20.8-48-48-48zM806.403 444.8h-35.2c-9.6 0-16-6.4-16-16v-35.2c0-9.6 6.4-16 16-16h35.2c9.6 0 16 6.4 16 16v35.2c0 9.6-8 16-16 16zM391.997 444.8h-35.2c-9.6 0-16-6.4-16-16v-35.2c0-9.6 6.4-16 16-16h35.2c9.6 0 16 6.4 16 16v35.2c0 9.6-8 16-16 16zM529.6 444.8h-35.2c-9.6 0-16-6.4-16-16v-35.2c0-9.6 6.4-16 16-16h35.2c9.6 0 16 6.4 16 16v35.2c0 9.6-6.4 16-16 16zM667.2 444.8h-35.2c-9.6 0-16-6.4-16-16v-35.2c0-9.6 6.4-16 16-16h35.2c9.6 0 16 6.4 16 16v35.2c0 9.6-6.4 16-16 16zM806.403 337.6h-35.2c-9.6 0-16-6.4-16-16v-35.2c0-9.6 6.4-16 16-16h35.2c9.6 0 16 6.4 16 16v35.2c0 9.6-8 16-16 16zM254.403 337.6h-35.2c-9.6 0-16-6.4-16-16v-35.2c0-9.6 6.4-16 16-16h35.2c9.6 0 16 6.4 16 16v35.2c0 9.6-8 16-16 16zM391.997 337.6h-35.2c-9.6 0-16-6.4-16-16v-35.2c0-9.6 6.4-16 16-16h35.2c9.6 0 16 6.4 16 16v35.2c0 9.6-8 16-16 16zM529.6 337.6h-35.2c-9.6 0-16-6.4-16-16v-35.2c0-9.6 6.4-16 16-16h35.2c9.6 0 16 6.4 16 16v35.2c0 9.6-6.4 16-16 16zM667.2 337.6h-35.2c-9.6 0-16-6.4-16-16v-35.2c0-9.6 6.4-16 16-16h35.2c9.6 0 16 6.4 16 16v35.2c0 9.6-6.4 16-16 16zM254.403 230.4h-35.2c-9.6 0-16-6.4-16-16v-35.2c0-9.6 6.4-16 16-16h35.2c9.6 0 16 6.4 16 16v35.2c0 9.6-8 16-16 16zM391.997 230.4h-35.2c-9.6 0-16-6.4-16-16v-35.2c0-9.6 6.4-16 16-16h35.2c9.6 0 16 6.4 16 16v35.2c0 9.6-8 16-16 16zM529.6 230.4h-35.2c-9.6 0-16-6.4-16-16v-35.2c0-9.6 6.4-16 16-16h35.2c9.6 0 16 6.4 16 16v35.2c0 9.6-6.4 16-16 16zM667.2 230.4h-35.2c-9.6 0-16-6.4-16-16v-35.2c0-9.6 6.4-16 16-16h35.2c9.6 0 16 6.4 16 16v35.2c0 9.6-6.4 16-16 16z" />
<glyph unicode="&#xe90a;" glyph-name="cart" d="M926.4 764.8c-16 19.2-38.4 30.4-62.4 30.4h-590.4c-1.6 0-1.6 0-3.2 0l-4.8 83.2c0 19.2-16 33.6-35.2 33.6h-134.4c-9.6 0-16-6.4-16-16s6.4-16 16-16h136c1.6 0 3.2-1.6 3.2-3.2l35.2-593.6c1.6-28.8 25.6-52.8 56-52.8h540.8c9.6 0 16 6.4 16 16s-6.4 16-16 16h-540.8c-12.8 0-22.4 9.6-24 22.4l-8 123.2h520c36.8 0 70.4 27.2 78.4 62.4l49.6 227.2c4.8 24 0 48-16 67.2zM912 705.6l-49.6-227.2c-4.8-22.4-24-38.4-46.4-38.4h-523.2l-19.2 323.2h590.4c14.4 0 28.8-6.4 36.8-17.6s14.4-27.2 11.2-40zM379.197 110.4c-38.4 0-70.4-32-70.4-72s32-72 70.4-72c38.4 0 70.4 32 70.4 72s-32 72-70.4 72zM379.197 0c-20.8 0-38.4 17.6-38.4 40s17.6 40 38.4 40c20.8 0 38.4-17.6 38.4-40s-17.6-40-38.4-40zM769.603 110.4c-38.4 0-70.4-32-70.4-72s32-72 70.4-72c38.4 0 70.4 32 70.4 72 1.6 40-30.4 72-70.4 72zM769.603 0c-20.8 0-38.4 17.6-38.4 40s17.6 40 38.4 40c20.8 0 38.4-17.6 38.4-40 1.6-22.4-16-40-38.4-40z" />
<glyph unicode="&#xe90b;" glyph-name="testimonial" d="M300.797 660.8h300.8c9.6 0 16 6.4 16 16s-6.4 16-16 16h-300.8c-9.6 0-16-6.4-16-16s8-16 16-16zM723.197 547.2h-422.4c-9.6 0-16-6.4-16-16s6.4-16 16-16h420.8c9.6 0 16 6.4 16 16s-6.4 16-14.4 16zM511.997 401.6h-211.2c-9.6 0-16-6.4-16-16s6.4-16 16-16h211.2c9.6 0 16 6.4 16 16s-6.4 16-16 16zM913.6 836.8h-803.2c-43.2 0-78.4-35.2-78.4-78.4v-462.4c0-43.2 35.2-78.4 78.4-78.4h248l139.2-153.6c3.2-3.2 8-4.8 11.2-4.8 4.8 0 8 1.6 11.2 4.8l142.4 153.6h249.6c43.2 0 78.4 35.2 78.4 78.4v462.4c1.6 43.2-33.6 78.4-76.8 78.4zM960 296c0-25.6-20.8-46.4-46.4-46.4h-257.6c-4.8 0-8-1.6-11.2-4.8l-134.4-145.6-131.2 145.6c-3.2 3.2-8 4.8-11.2 4.8h-256c-25.6 0-46.4 20.8-46.4 46.4v462.4c-1.6 25.6 19.2 46.4 44.8 46.4h803.2c25.6 0 46.4-20.8 46.4-46.4v-462.4z" />
<glyph unicode="&#xe90c;" glyph-name="forms" d="M900.8 524.8h-398.4c-9.6 0-16-6.4-16-16s6.4-16 16-16h396.8c33.6 0 59.2-27.2 59.2-59.2v-339.2c0-33.6-27.2-59.2-59.2-59.2h-696c-33.6 0-59.2 27.2-59.2 59.2v200c0 9.6-6.4 16-16 16s-16-6.4-16-16v-201.6c0-51.2 41.6-91.2 91.2-91.2h696c51.2 0 91.2 41.6 91.2 91.2v340.8c1.6 49.6-40 91.2-89.6 91.2zM244.801 328l132.799-97.6c3.2-1.6 6.4-3.2 9.6-3.2 1.6 0 4.8 0 6.4 1.6 4.8 3.2 9.6 8 9.6 12.8l11.2 164.8c0 3.2 0 4.8-1.6 8l-198.399 427.2c-22.4 46.4-76.8 65.6-121.6 44.8l-8-4.8c-46.4-20.8-65.6-75.2-44.8-121.6l200-427.2c1.6-1.6 3.2-3.2 4.8-4.8zM374.4 273.6l-107.199 78.4-163.2 347.2 115.2 54.4 163.199-348.8-8-131.2zM67.201 819.2c4.8 14.4 16 27.2 30.4 33.6l8 3.2c30.4 14.4 65.6 1.6 78.4-28.8l20.8-46.4-115.2-54.4-20.8 46.4c-6.4 16-6.4 32-1.6 46.4zM820.797 320c9.6 0 16 6.4 16 16s-6.4 16-16 16h-160c-9.6 0-16-6.4-16-16s6.4-16 16-16h160zM520 185.6c0-9.6 6.4-16 16-16h284.8c9.6 0 16 6.4 16 16s-6.4 16-16 16h-284.8c-9.6 0-16-8-16-16z" />
<glyph unicode="&#xe90d;" glyph-name="service-block" d="M512 928c-264 0-480-216-480-480s216-480 480-480c264 0 480 216 480 480s-216 480-480 480zM512 0c-246.4 0-448 201.6-448 448s201.6 448 448 448c246.4 0 448-201.6 448-448s-201.6-448-448-448zM670.403 585.6l-212.8-204.8-105.6 100.8c-6.4 6.4-16 6.4-22.4 0s-6.4-16 0-22.4l105.6-102.4c6.4-6.4 12.8-8 20.8-8s16 3.2 20.8 8l212.8 208c6.4 6.4 6.4 16 0 22.4-3.2 4.8-12.8 4.8-19.2-1.6z" />
<glyph unicode="&#xe90e;" glyph-name="pricing-list" d="M575.997 464h-118.4c-46.4 0-84.8 36.8-84.8 80 0 44.8 38.4 80 84.8 80h171.2c9.6 0 16 6.4 16 16s-6.4 16-16 16h-100.8v60.8c0 9.6-6.4 16-16 16s-16-6.4-16-16v-60.8h-38.4c-64 0-116.8-51.2-116.8-112s52.8-112 116.8-112h118.4c46.4 0 84.8-36.8 84.8-80 0-44.8-38.4-80-84.8-80h-179.2c-9.6 0-16-6.4-16-16s6.4-16 16-16h99.2v-60.8c0-9.6 6.4-16 16-16s16 6.4 16 16v60.8h48c64 0 116.8 51.2 116.8 112s-52.8 112-116.8 112zM512 928c-264 0-480-216-480-480s216-480 480-480c264 0 480 216 480 480s-216 480-480 480zM512 0c-246.4 0-448 201.6-448 448s201.6 448 448 448c246.4 0 448-201.6 448-448s-201.6-448-448-448z" />
<glyph unicode="&#xe90f;" glyph-name="comments" d="M990.4 412.8l-35.2 92.8c28.8 46.4 40 100.8 33.6 156.801-12.8 118.4-107.2 214.4-227.2 225.6-76.8 8-152-17.6-208-72-54.4-54.4-81.6-129.6-73.6-208.001 0-3.2 0-4.8 1.6-8-8 0-16 1.6-24 1.6h-164.8c-144 0-260.8-113.6-260.8-252.8 0-140.8 91.2-238.4 316.8-340.8 3.2-1.6 8-3.2 12.8-3.2 6.4 0 11.2 1.6 16 4.8 8 4.8 14.4 14.4 14.4 25.6v60.8h65.6c144 0 260.8 113.6 260.8 252.8 0 11.2-1.6 20.8-1.6 30.4 54.4-3.2 107.2 8 152 36.8l81.6-41.6c4.8-1.6 8-3.2 12.8-3.2 6.4 0 14.4 3.2 19.2 8 9.6 9.6 11.2 22.4 8 33.6zM456 128h-67.2c-16 0-30.4-12.8-30.4-30.4v-59.2c-211.2 97.6-294.4 184-294.4 310.4 0 121.6 102.4 220.8 228.8 220.8h163.2c126.4 0 228.8-99.2 228.8-220.8 1.6-121.6-102.4-220.8-228.8-220.8zM875.2 449.6c-4.8 3.2-11.2 1.6-16-1.6-43.2-28.8-94.4-41.6-145.6-36.8-1.6 0-1.6 0-3.2 0-24 91.2-99.2 161.6-195.2 182.4-1.6 4.8-1.6 11.2-1.6 16-6.4 67.201 16 134.401 64 180.801 48 48 113.6 70.4 182.4 64 104-11.2 187.2-94.4 198.4-198.4 4.8-51.201-6.4-100.801-33.6-144.001-3.2-4.8-3.2-9.6-1.6-14.4l35.2-92.8-83.2 44.8z" />
<glyph unicode="&#xe910;" glyph-name="info-card" d="M694.4 740.8h-364.8c-9.6 0-15.998-6.4-15.998-16s6.398-16 15.998-16h364.8c9.6 0 16 6.4 16 16s-8 16-16 16zM694.4 584h-364.8c-9.6 0-15.998-6.4-15.998-16s6.398-16 15.998-16h364.8c9.6 0 16 6.4 16 16s-8 16-16 16zM588.8 428.8h-259.2c-9.6 0-15.998-6.4-15.998-16s6.398-16 15.998-16h259.2c9.6 0 16 6.4 16 16s-6.4 16-16 16zM512.003 270.4c-46.4 0-84.8-38.4-84.8-84.8s38.4-84.8 84.8-84.8c46.4 0 84.8 38.4 84.8 84.8s-38.4 84.8-84.8 84.8zM512.003 131.2c-28.8 0-52.8 24-52.8 52.8s24 52.8 52.8 52.8c28.8 0 52.8-24 52.8-52.8s-24-52.8-52.8-52.8zM742.403 928h-460.802c-80 0-144-64-144-144v-672c0-80 64-144 144-144h460.802c80 0 144 64 144 144v672c0 80-64 144-144 144zM854.403 112c0-62.4-49.6-112-112-112h-460.802c-62.4 0-112 49.6-112 112v672c0 62.4 49.6 112 112 112h460.802c62.4 0 112-49.6 112-112v-672z" />
<glyph unicode="&#xe911;" glyph-name="checkout-form" d="M892.8 833.6c0 51.2-41.597 94.4-94.397 94.4h-574.402c-51.2 0-94.4-41.6-94.4-94.4v-832c0-6.4 3.2-11.2 8-14.4s11.2-3.2 16 0l89.6 59.2c3.2 1.6 8 1.6 11.2 0l116.798-76.8c4.8-3.2 12.8-3.2 17.6 0l115.2 76.8c3.2 1.6 8 1.6 11.2 0l116.8-76.8c3.2-1.6 6.4-3.2 9.6-3.2s6.4 1.6 9.6 3.2l116.8 78.4c3.2 1.6 8 1.6 11.2 0l89.6-59.2c4.8-3.2 11.2-3.2 16 0s8 8 8 14.4v830.4zM796.8 75.2c-14.4 9.6-33.6 9.6-48 0l-107.2-72-107.2 72c-6.4 4.8-16 8-24 8s-16-1.6-24-6.4l-107.2-70.4-107.198 70.4c-14.4 9.6-33.6 9.6-48 0l-64-43.2v800c3.2 35.2 30.4 62.4 64 62.4h574.402c33.6 0 62.397-27.2 62.397-62.4v-801.6l-64 43.2zM449.603 769.6h-142.4c-9.6 0-16-6.4-16-16s6.4-16 16-16h142.4c9.6 0 16 6.4 16 16s-8 16-16 16zM708.8 769.6h-38.4c-9.6 0-16-6.4-16-16s6.4-16 16-16h38.4c9.6 0 16 6.4 16 16s-6.4 16-16 16zM305.602 555.2h91.198c9.6 0 16 6.4 16 16s-6.4 16-16 16h-91.198c-9.6 0-16-6.4-16-16s8-16 16-16zM708.8 587.2h-38.4c-9.6 0-16-6.4-16-16s6.4-16 16-16h38.4c9.6 0 16 6.4 16 16s-6.4 16-16 16zM449.603 404.8h-142.4c-9.6 0-16-6.4-16-16s6.4-16 16-16h142.4c9.6 0 16 6.4 16 16s-8 16-16 16zM708.8 404.8h-38.4c-9.6 0-16-6.4-16-16s6.4-16 16-16h38.4c9.6 0 16 6.4 16 16s-6.4 16-16 16zM396.8 224h-91.198c-9.6 0-16-6.4-16-16s6.4-16 16-16h91.198c9.6 0 16 6.4 16 16s-6.4 16-16 16zM708.8 224h-38.4c-9.6 0-16-6.4-16-16s6.4-16 16-16h38.4c9.6 0 16 6.4 16 16s-6.4 16-16 16z" />
<glyph unicode="&#xe912;" glyph-name="retina-image" d="M512.003 548.8c-56 0-100.8-44.8-100.8-100.8s44.8-100.8 100.8-100.8c56 0 100.8 44.8 100.8 100.8s-44.8 100.8-100.8 100.8zM512.003 379.2c-38.4 0-68.8 30.4-68.8 68.8s30.4 68.8 68.8 68.8c38.4 0 68.8-30.4 68.8-68.8s-30.4-68.8-68.8-68.8zM988.8 460.8c-104 161.6-281.6 259.2-476.8 259.2-195.198 0-372.798-97.6-476.798-259.2-4.8-8-4.8-17.6 0-24 104-163.2 281.6-260.8 476.798-260.8 195.2 0 372.8 97.6 476.8 260.8 4.8 6.4 4.8 16 0 24zM512 208c-182.4 0-348.798 89.6-446.398 240 97.6 150.4 263.998 240 446.398 240s348.803-89.6 446.403-240c-97.6-150.4-264.003-240-446.403-240z" />
<glyph unicode="&#xe913;" glyph-name="image-gallery" d="M369.603 307.2c43.2 0 78.4 35.2 78.4 78.4s-35.2 78.4-78.4 78.4c-43.2 0-78.4-35.2-78.4-78.4s35.2-78.4 78.4-78.4zM369.603 432c25.6 0 46.4-20.8 46.4-46.4s-20.8-46.4-46.4-46.4c-25.6 0-46.4 20.8-46.4 46.4s20.8 46.4 46.4 46.4zM787.197 636.8c43.2 0 78.4 35.2 78.4 78.4s-35.2 78.4-78.4 78.4c-43.2 0-78.4-35.2-78.4-78.4s35.2-78.4 78.4-78.4zM787.197 761.6c25.6 0 46.4-20.8 46.4-46.4s-20.8-46.4-46.4-46.4c-25.6 0-46.4 20.8-46.4 46.4s20.8 46.4 46.4 46.4zM888 924.8h-328c-57.6 0-104-46.4-104-104v-225.6h-336c-44.8 0-80-35.2-80-80v-464c0-44.8 35.2-80 80-80h376c44.8 0 80 35.2 80 80v249.6h313.6c57.6 0 104 46.4 104 104v416c-1.6 57.6-48 104-105.6 104zM488 820.8c0 40 32 72 72 72h329.6c40 0 72-32 72-72v-248c-12.8-6.4-36.8-24-41.6-27.2-14.4-9.6-28.8-22.4-41.6-33.6-36.8-32-73.6-64-121.6-46.4-9.6 3.2-17.6 11.2-27.2 17.6l-4.8 4.8c-24 19.2-49.6 40-81.6 48-22.4 6.4-44.8 6.4-70.4-1.6-9.6 35.2-40 60.8-76.8 60.8h-8v225.6zM120 563.2h376c27.2 0 48-20.8 48-48v-272c-8-4.8-20.8-12.8-41.6-27.2-14.4-9.6-28.8-20.8-41.6-33.6-36.8-32-73.6-64-121.6-46.4-9.6 3.2-19.2 11.2-28.8 19.2l-3.2 4.8c-24 19.2-49.6 40-81.6 49.6-54.4 16-102.4-14.4-144-41.6-3.2-1.6-6.4-4.8-11.2-6.4v353.6c1.6 27.2 22.4 48 49.6 48zM496 3.2h-376c-27.2 0-48 20.8-48 48v72c9.6 4.8 19.2 11.2 27.2 16 38.4 24 78.4 49.6 118.4 36.8 25.6-8 48-25.6 70.4-43.2l3.2-3.2c11.2-9.6 22.4-19.2 38.4-25.6 14.4-4.8 27.2-8 38.4-8 46.4 0 81.6 30.4 113.6 59.2 12.8 11.2 25.6 22.4 38.4 30.4 9.6 6.4 17.6 12.8 24 16v-155.2c0-20.8-22.4-43.2-48-43.2zM888 332.8h-312v169.6c22.4 8 40 9.6 57.6 4.8 25.6-8 48-25.6 70.4-43.2l4.8-3.2c11.2-9.6 22.4-19.2 36.8-24s27.2-8 38.4-8c46.4 0 81.6 30.4 113.6 59.2 12.8 11.2 25.6 22.4 38.4 30.4 4.8 3.2 14.4 9.6 22.4 16v-131.2c1.6-38.4-30.4-70.4-70.4-70.4z" />
<glyph unicode="&#xe914;" glyph-name="portfolio-grid" d="M883.2 926.4h-742.4c-59.2 0-108.8-48-108.8-108.8v-742.4c0-59.2 49.6-108.8 108.8-108.8h742.4c59.2 0 108.8 49.6 108.8 108.8v742.4c0 60.8-49.6 108.8-108.8 108.8zM960 817.6v-203.2h-432v280h355.2c41.6 0 76.8-33.6 76.8-76.8zM528 582.4h432v-272h-432v272zM496 310.4h-432v272h432v-272zM140.8 894.4h355.2v-280h-432v203.2c0 43.2 35.2 76.8 76.8 76.8zM64 75.2v203.2h432v-280h-355.2c-41.6 0-76.8 35.2-76.8 76.8zM883.2-1.6h-355.2v280h432v-203.2c0-41.6-35.2-76.8-76.8-76.8z" />
<glyph unicode="&#xe915;" glyph-name="blog" d="M883.2 928h-742.4c-59.2 0-108.8-49.6-108.8-108.8v-742.4c0-59.2 49.6-108.8 108.8-108.8h742.4c59.2 0 108.8 49.6 108.8 108.8v742.4c0 59.2-49.6 108.8-108.8 108.8zM960 819.2v-355.2h-432v432h355.2c41.6 0 76.8-35.2 76.8-76.8zM140.8 896h355.2v-432h-432v355.2c0 41.6 35.2 76.8 76.8 76.8zM64 76.8v355.2h432v-432h-355.2c-41.6 0-76.8 35.2-76.8 76.8zM883.2 0h-355.2v432h432v-355.2c0-41.6-35.2-76.8-76.8-76.8z" />
<glyph unicode="&#xe916;" glyph-name="grid" d="M315.2 916.8h-203.2c-44.8 0-80-35.2-80-80v-203.2c0-44.8 35.2-80 80-80h203.2c44.8 0 80 35.2 80 80v203.2c0 44.8-35.2 80-80 80zM363.2 633.6c0-27.2-20.8-48-48-48h-203.2c-27.2 0-48 20.8-48 48v203.2c0 27.2 20.8 48 48 48h203.2c27.2 0 48-20.8 48-48v-203.2zM911.997 916.8h-203.2c-44.8 0-80-35.2-80-80v-203.2c0-44.8 35.2-80 80-80h203.2c44.8 0 80 35.2 80 80v203.2c0 44.8-35.2 80-80 80zM959.997 633.6c0-27.2-20.8-48-48-48h-203.2c-27.2 0-48 20.8-48 48v203.2c0 27.2 20.8 48 48 48h203.2c27.2 0 48-20.8 48-48v-203.2zM315.2 342.4h-203.2c-44.8 0-80-35.2-80-80v-203.2c0-44.8 35.2-80 80-80h203.2c44.8 0 80 35.2 80 80v203.2c0 44.8-35.2 80-80 80zM363.2 59.2c0-27.2-20.8-48-48-48h-203.2c-27.2 0-48 20.8-48 48v203.2c0 27.2 20.8 48 48 48h203.2c27.2 0 48-20.8 48-48v-203.2zM911.997 342.4h-203.2c-44.8 0-80-35.2-80-80v-203.2c0-44.8 35.2-80 80-80h203.2c44.8 0 80 35.2 80 80v203.2c0 44.8-35.2 80-80 80zM959.997 59.2c0-27.2-20.8-48-48-48h-203.2c-27.2 0-48 20.8-48 48v203.2c0 27.2 20.8 48 48 48h203.2c27.2 0 48-20.8 48-48v-203.2z" />
<glyph unicode="&#xe917;" glyph-name="post-image" d="M636.797 473.6c67.2 0 120 54.4 120 120s-54.4 120-120 120c-65.6 0-120-54.4-120-120s54.4-120 120-120zM636.797 683.2c49.6 0 88-40 88-88s-40-88-88-88c-48 0-88 40-88 88s40 88 88 88zM856 928h-688c-44.8 0-80-35.2-80-80v-800c0-44.8 35.2-80 80-80h689.6c44.8 0 80 35.2 80 80v800c-1.6 44.8-36.8 80-81.6 80zM168 896h689.6c27.2 0 48-20.8 48-48v-446.4h-1.6c-16-8-36.8-24-51.2-33.6-22.4-14.4-44.8-33.6-65.6-52.8-62.4-54.4-121.6-107.2-203.2-76.8-17.6 6.4-32 19.2-48 33.6l-6.4 4.8c-38.4 30.4-78.4 62.4-126.4 76.8-81.6 25.6-156.8-22.4-222.4-65.6-19.2-12.8-38.4-24-57.6-35.2 0 0-1.6-1.6-3.2-1.6v596.8c0 27.2 20.8 48 48 48zM856 0h-688c-27.2 0-48 20.8-48 48v168c9.6 4.8 19.2 11.2 19.2 11.2 19.2 9.6 38.4 22.4 57.6 35.2 64 40 129.6 81.6 196.8 60.8 43.2-12.8 80-41.6 115.2-72l6.4-4.8c16-14.4 35.2-30.4 57.6-38.4 20.8-8 40-11.2 57.6-11.2 70.4 0 126.4 49.6 176 92.8 20.8 19.2 41.6 36.8 62.4 51.2 9.6 6.4 22.4 16 35.2 24v-316.8c0-27.2-20.8-48-48-48z" />
<glyph unicode="&#xe918;" glyph-name="pricing" d="M200 352h-134.4c-19.2 0-33.6-17.6-33.6-38.4v-294.4c0-20.8 14.4-38.4 33.6-38.4h134.4c19.2 0 33.6 17.6 33.6 38.4v294.4c-1.6 20.8-16 38.4-33.6 38.4zM200 20.8c0-3.2-1.6-6.4-1.6-6.4h-132.8c0 0-1.6 1.6-1.6 6.4v292.8c0 4.8 1.6 6.4 1.6 6.4h132.8c0 0 1.6-3.2 1.6-6.4v-292.8zM579.203 436.8h-134.4c-19.2 0-33.6-16-33.6-35.2v-382.4c0-19.2 14.4-35.2 33.6-35.2h134.4c19.2 0 33.6 16 33.6 35.2v380.8c0 20.8-16 36.8-33.6 36.8zM580.803 19.2c0-3.2-1.6-3.2-1.6-3.2h-132.8c0 0-1.6 1.6-1.6 3.2v380.8c0 3.2 1.6 3.2 1.6 3.2h134.4c0 0 1.6-1.6 1.6-3.2v-380.8h-1.6zM958.4 310.4h-134.4c-19.2 0-33.6-17.6-33.6-38.4v-251.2c0-20.8 14.4-38.4 33.6-38.4h134.4c19.2 0 33.6 17.6 33.6 38.4v251.2c0 20.8-14.4 38.4-33.6 38.4zM960 20.8c0-3.2-1.6-6.4-1.6-6.4h-132.803c0 0-1.597 1.6-1.597 6.4v251.2c0 3.2 1.597 6.4 1.597 6.4h132.803c0 0 1.6-3.2 1.6-6.4v-251.2zM555.2 753.6h-84.8c-27.2 0-48 20.8-48 44.8 0 25.6 20.8 44.8 48 44.8h126.4c9.6 0 16 6.4 16 16s-6.4 16-16 16h-56v22.4c0 9.6-6.4 16-16 16s-16-6.4-16-16v-20.8h-38.4c-44.8 0-80-35.2-80-76.8s35.2-76.8 80-76.8h84.8c27.2 0 48-20.8 48-44.8 0-25.6-20.8-44.8-48-44.8h-144c-9.6 0-16-6.4-16-16s6.4-16 16-16h96v-20.8c0-9.6 6.4-16 16-16s16 6.4 16 16v20.8h16c44.8 0 80 35.2 80 76.8s-36.8 75.2-80 75.2z" />
<glyph unicode="&#xe919;" glyph-name="search-results" d="M977.597 120l-222.397 220.8c-24 24-65.6 24-91.2 0l-12.8-12.8-115.2 115.2c105.6 115.2 102.4 292.8-8 403.2-113.6 113.6-300.802 113.6-414.402 0s-113.6-300.8 0-414.4c57.6-57.6 132.8-86.4 208.002-86.4 70.4 0 139.2 25.6 195.2 75.2l115.2-115.2-12.8-12.8c-12.8-12.8-19.2-28.8-19.2-44.8 0-17.6 6.4-33.6 19.2-44.8l222.397-222.4c12.8-12.8 28.803-19.2 44.803-19.2 17.6 0 33.6 6.4 44.8 19.2l46.397 46.4c12.8 12.8 19.203 28.8 19.203 44.8s-6.403 35.2-19.203 48zM135.998 454.4c-102.4 102.4-102.4 267.2 0 369.6 51.2 51.2 118.4 76.8 184 76.8 65.602 0 134.402-25.6 184.002-76.8 102.4-102.4 102.4-267.2 0-369.6-100.8-100.8-265.602-100.8-368.002 0zM955.2 51.2l-46.4-46.4c-12.8-12.8-33.6-12.8-44.8 0l-222.403 222.4c-6.4 6.4-9.597 14.4-9.597 22.4s3.197 16 9.597 22.4l46.403 46.4c6.4 6.4 14.4 9.6 22.4 9.6s16-3.2 22.4-9.6l222.4-222.4c6.4-6.4 9.6-14.4 9.6-22.4s-3.2-16-9.6-22.4zM236.797 683.199h81.6c9.6 0 16 6.4 16 16s-6.4 16-16 16h-81.6c-9.6 0-16-6.4-16-16s8-16 16-16zM407.997 592h-171.2c-9.6 0-16-6.4-16-16s6.4-16 16-16h171.2c9.6 0 16 6.4 16 16s-8 16-16 16z" />
<glyph unicode="&#xe91a;" glyph-name="feature-bar" d="M48 558.4h928c9.6 0 16 6.4 16 16s-6.4 16-16 16h-928c-9.6 0-16-6.4-16-16s6.4-16 16-16zM976 337.6h-928c-9.6 0-16-6.4-16-16s6.4-16 16-16h928c9.6 0 16 6.4 16 16s-6.4 16-16 16z" />
<glyph unicode="&#xe91b;" glyph-name="expand-list" d="M220.8 814.4h-140.8c-27.2 0-48-20.8-48-48v-140.8c0-27.2 20.8-48 48-48h140.8c27.2 0 48 20.8 48 48v140.8c0 27.2-22.4 48-48 48zM236.8 627.2c0-9.6-6.4-16-16-16h-140.8c-9.6 0-16 6.4-16 16v140.8c0 9.6 6.4 16 16 16h140.8c9.6 0 16-6.4 16-16v-140.8zM220.8 316.8h-140.8c-27.2 0-48-20.8-48-48v-140.8c0-27.2 20.8-48 48-48h140.8c27.2 0 48 20.8 48 48v140.8c0 27.2-22.4 48-48 48zM236.8 129.6c0-9.6-6.4-16-16-16h-140.8c-9.6 0-16 6.4-16 16v140.8c0 9.6 6.4 16 16 16h140.8c9.6 0 16-6.4 16-16v-140.8zM457.6 752h518.4c9.6 0 16 6.4 16 16s-6.4 16-16 16h-518.4c-9.6 0-16-6.4-16-16s6.4-16 16-16zM976 641.6h-518.4c-9.6 0-16-6.4-16-16s6.4-16 16-16h518.4c9.6 0 16 6.4 16 16s-6.4 16-16 16zM976 286.4h-518.4c-9.6 0-16-6.4-16-16s6.4-16 16-16h518.4c9.6 0 16 6.4 16 16s-6.4 16-16 16zM976 144h-518.4c-9.6 0-16-6.4-16-16s6.4-16 16-16h518.4c9.6 0 16 6.4 16 16s-6.4 16-16 16z" />
<glyph unicode="&#xe91c;" glyph-name="listing" d="M187.2 899.2h-107.2c-27.2 0-48-20.8-48-48v-107.2c0-27.2 20.8-48 48-48h107.2c27.2 0 48 20.8 48 48v107.2c0 27.2-22.4 48-48 48zM203.2 744c0-9.6-6.4-16-16-16h-107.2c-9.6 0-16 6.4-16 16v107.2c0 9.6 6.4 16 16 16h107.2c9.6 0 16-6.4 16-16v-107.2zM408 780.8h568c9.6 0 16 6.4 16 16s-6.4 16-16 16h-568c-9.6 0-16-6.4-16-16s6.4-16 16-16zM187.2 558.4h-107.2c-27.2 0-48-20.8-48-48v-107.2c0-27.2 20.8-48 48-48h107.2c27.2 0 48 20.8 48 48v107.2c0 27.2-22.4 48-48 48zM203.2 403.2c0-9.6-6.4-16-16-16h-107.2c-9.6 0-16 6.4-16 16v107.2c0 9.6 6.4 16 16 16h107.2c9.6 0 16-6.4 16-16v-107.2zM976 473.6h-568c-9.6 0-16-6.4-16-16s6.4-16 16-16h568c9.6 0 16 6.4 16 16s-6.4 16-16 16zM187.2 200h-107.2c-27.2 0-48-20.8-48-48v-107.2c0-27.2 20.8-48 48-48h107.2c27.2 0 48 20.8 48 48v107.2c0 27.2-22.4 48-48 48zM203.2 44.8c0-9.6-6.4-16-16-16h-107.2c-9.6 0-16 6.4-16 16v107.2c0 9.6 6.4 16 16 16h107.2c9.6 0 16-6.4 16-16v-107.2zM976 115.2h-568c-9.6 0-16-6.4-16-16s6.4-16 16-16h568c9.6 0 16 6.4 16 16s-6.4 16-16 16z" />
<glyph unicode="&#xe91d;" glyph-name="menu-tabs" d="M976.003 475.2h-928c-16 0-28.8-12.8-28.8-28.8s12.8-27.2 28.8-27.2h928c16 0 28.8 12.8 28.8 28.8s-12.8 27.2-28.8 27.2zM976.003 193.6h-928c-16 0-28.8-12.8-28.8-28.8s12.8-27.2 28.8-27.2h928c16 0 28.8 12.8 28.8 28.8s-12.8 27.2-28.8 27.2zM48.003 702.4h928c16 0 28.8 12.8 28.8 28.8s-12.8 27.2-28.8 27.2h-928c-16 0-28.8-12.8-28.8-28.8s12.8-27.2 28.8-27.2z" />
<glyph unicode="&#xe91e;" glyph-name="details" d="M512.003 548.8c-56 0-100.8-44.8-100.8-100.8s44.8-100.8 100.8-100.8c56 0 100.8 44.8 100.8 100.8s-44.8 100.8-100.8 100.8zM512.003 379.2c-38.4 0-68.8 30.4-68.8 68.8s30.4 68.8 68.8 68.8c38.4 0 68.8-30.4 68.8-68.8s-30.4-68.8-68.8-68.8zM891.2 548.8c-56 0-100.8-44.8-100.8-100.8s44.8-100.8 100.8-100.8c56 0 100.8 44.8 100.8 100.8s-44.8 100.8-100.8 100.8zM891.2 379.2c-38.4 0-68.8 30.4-68.8 68.8s30.4 68.8 68.8 68.8c38.4 0 68.8-30.4 68.8-68.8s-30.4-68.8-68.8-68.8zM132.8 548.8c-56 0-100.8-44.8-100.8-100.8s44.8-100.8 100.8-100.8c56 0 100.8 44.8 100.8 100.8s-46.4 100.8-100.8 100.8zM132.8 379.2c-38.4 0-68.8 30.4-68.8 68.8s30.4 68.8 68.8 68.8c38.4 0 68.8-30.4 68.8-68.8-1.6-38.4-32-68.8-68.8-68.8z" />
<glyph unicode="&#xe91f;" glyph-name="service-details" d="M512 928c-264 0-480-216-480-480s216-480 480-480c264 0 480 216 480 480s-216 480-480 480zM512 0c-246.4 0-448 201.6-448 448s201.6 448 448 448c246.4 0 448-201.6 448-448s-201.6-448-448-448zM256.003 507.2c-33.6 0-60.8-27.2-60.8-60.8s27.2-60.8 60.8-60.8c33.6 0 60.8 27.2 60.8 60.8s-27.2 60.8-60.8 60.8zM512.003 507.2c-33.6 0-60.8-27.2-60.8-60.8s27.2-60.8 60.8-60.8c33.6 0 60.8 27.2 60.8 60.8s-27.2 60.8-60.8 60.8zM768.003 387.2c33.578 0 60.8 27.222 60.8 60.8 0 33.581-27.222 60.8-60.8 60.8s-60.8-27.219-60.8-60.8c0-33.578 27.222-60.8 60.8-60.8z" />
<glyph unicode="&#xe920;" glyph-name="post-content" d="M825.597 928h-627.198c-44.8 0-80-35.2-80-80v-800c0-44.8 35.2-80 80-80h627.198c44.8 0 80 35.2 80 80v800c0 44.8-36.8 80-80 80zM873.597 48c0-27.2-20.8-48-48-48h-627.198c-27.2 0-48 20.8-48 48v800c0 27.2 20.8 48 48 48h627.198c27.2 0 48-20.8 48-48v-800zM736 803.199h-182.4c-17.6 0-32-14.4-32-32v-220.799c0-17.6 14.4-32 32-32h182.4c17.6 0 32 14.4 32 32v220.799c0 17.6-14.4 32-32 32zM553.6 550.4v220.799h182.4v-220.799h-182.4zM275.195 742.4h121.602c9.6 0 16 6.4 16 16s-6.4 16-16 16h-121.602c-9.6 0-16-6.4-16-16s6.4-16 16-16zM275.195 532.8h121.602c9.6 0 16 6.4 16 16s-6.4 16-16 16h-121.602c-9.6 0-16-6.4-16-16s6.4-16 16-16zM751.997 353.6h-476.802c-9.6 0-16-6.4-16-16s6.4-16 16-16h476.802c9.6 0 16 6.4 16 16s-8 16-16 16zM751.997 142.4h-476.802c-9.6 0-16-6.4-16-16s6.4-16 16-16h476.802c9.6 0 16 6.4 16 16s-8 16-16 16z" />
<glyph unicode="&#xe921;" glyph-name="package" d="M512 473.6c78.4 0 142.4 64 142.4 142.4s-64 142.4-142.4 142.4c-78.4 0-142.4-64-142.4-142.4s64-142.4 142.4-142.4zM512 726.4c60.8 0 110.4-49.6 110.4-110.4s-49.6-110.4-110.4-110.4c-60.8 0-110.4 49.6-110.4 110.4s49.6 110.4 110.4 110.4zM596.803 211.2h-169.6c-9.6 0-16-6.4-16-16s6.4-16 16-16h168c9.6 0 16 6.4 16 16s-6.4 16-14.4 16zM766.403 928h-540.802c-27.2 0-48-20.8-48-48v-864c0-27.2 20.8-48 48-48h539.198c44.8 0 80 35.2 80 80v800c1.6 44.8-35.197 80-78.397 80zM814.403 48c0-27.2-20.8-48-48-48h-540.802c-9.6 0-16 6.4-16 16v864c0 9.6 6.4 16 16 16h539.198c27.2 0 48-20.8 48-48v-800h1.603zM638.4 332.8h-252.8c-9.6 0-16-6.4-16-16s6.4-16 16-16h252.8c9.6 0 16 6.4 16 16s-6.4 16-16 16z" />
<glyph unicode="&#xe922;" glyph-name="google-maps" d="M953.6 72l-56 417.6c-6.4 44.8-44.8 80-91.2 80h-123.2c32 44.8 54.4 91.2 54.4 132.8 1.6 123.2-100.8 225.6-225.6 225.6s-227.199-102.4-227.199-227.2c0-41.6 24-88 54.399-132.8h-123.199c-46.4 0-84.8-33.6-91.2-80l-54.4-416c-3.2-25.6 4.8-52.8 22.4-72s43.2-32 68.8-32h702.399c25.6 0 51.2 11.2 68.8 32s24 44.8 20.8 72zM512 896c107.2 0 195.2-88 195.2-195.2 0-41.6-28.8-91.2-65.6-136-46.4-59.2-105.6-112-128-132.8-62.4 54.4-195.199 185.6-195.199 270.4-1.6 105.6 86.399 193.6 193.599 193.6zM156.801 484.8c3.2 28.8 28.8 51.2 59.2 51.2h147.199c59.2-73.6 132.8-136 137.6-139.2 3.2-3.2 6.4-3.2 9.6-3.2s8 1.6 9.6 3.2c4.8 4.8 78.4 65.6 137.6 139.2h147.2c30.4 0 54.4-22.4 59.2-51.2l14.4-113.6h-171.2c-4.8 0-9.6-1.6-12.8-4.8l-112-129.6h-452.799c-1.6 0-3.2 0-4.8-1.6l32 249.6zM116.801 20.8c-11.2 12.8-16 30.4-14.4 46.4l19.2 139.2c3.2-1.6 4.8-3.2 8-3.2h460.799c4.8 0 9.6 1.6 12.8 4.8l112 129.6h171.2l17.6-131.2-280-84.8c-4.8-1.6-9.6-6.4-11.2-11.2s0-11.2 3.2-14.4l86.4-96h-540.799c-17.6 0-33.6 8-44.8 20.8zM907.2 20.8c-11.2-12.8-27.2-20.8-44.8-20.8h-116.8l-88 99.2 249.6 76.8 14.4-107.2c3.2-19.2-3.2-35.2-14.4-48zM604.803 708.8c0 51.2-41.6 92.8-92.8 92.8s-92.8-41.6-92.8-92.8c0-51.2 41.6-92.8 92.8-92.8 51.2-1.6 92.8 41.6 92.8 92.8zM451.203 708.8c0 33.6 27.2 60.8 60.8 60.8s60.8-27.2 60.8-60.8c0-33.6-27.2-60.8-60.8-60.8-33.6-1.6-60.8 27.2-60.8 60.8z" />
<glyph unicode="&#xe923;" glyph-name="police-badge" d="M916.803 508.8c-88 134.4-12.8 262.4 24 312 4.8 6.4 4.8 14.4-1.6 20.8l-80 81.6c-6.4 6.4-14.4 6.4-20.8 1.6-51.2-38.4-110.4-59.2-172.8-62.4-52.8 0-104 20.8-142.4 57.6-6.4 6.4-16 6.4-22.4 0-38.4-36.8-89.6-56-142.4-57.6-62.401 3.2-123.201 24-174.401 62.4-6.4 4.8-16 4.8-20.8-1.6l-80-81.6c-4.8-6.4-6.4-14.4-1.6-20.8 36.8-48 112-176 24-312-51.2-78.4-51.2-195.2-1.6-297.6 68.8-139.2 217.601-227.2 406.401-243.2h3.2c190.4 16 337.6 104 406.4 243.2 49.6 102.4 48 219.2-3.2 297.6zM889.603 225.6c-62.4-128-200-209.6-377.6-225.6-177.6 16-315.201 97.6-377.601 225.6-44.8 92.8-44.8 196.8-1.6 265.6 94.4 145.6 19.2 284.8-17.6 337.6l60.8 62.4c52.8-36.8 115.2-57.6 180.801-59.2 0 0 0 0 1.6 0 56 0 110.4 19.2 153.6 56 43.2-36.8 96-56 153.6-56 65.6 3.2 126.4 24 180.8 59.2l60.8-62.4c-41.6-60.8-108.8-195.2-17.6-337.6 46.4-68.8 46.4-172.8 0-265.6zM617.6 465.6l-64 9.6-27.2 57.6c-4.8 11.2-24 11.2-28.8 0l-27.2-57.6-64-9.6c-6.4-1.6-11.2-4.8-12.8-11.2s0-12.8 4.8-16l46.4-44.8-11.2-64c-1.6-6.4 1.6-12.8 6.4-16 3.2-1.6 6.4-3.2 9.6-3.2s4.8 0 8 1.6l57.6 30.4 57.6-30.4c4.8-3.2 11.2-1.6 17.6 1.6 4.8 3.2 8 9.6 6.4 16l-11.2 64 44.8 44.8c4.8 4.8 6.4 11.2 3.2 16-4.8 6.4-9.6 11.2-16 11.2zM553.6 411.2c-3.2-3.2-4.8-8-4.8-11.2 0-1.6 0-1.6 0-3.2l6.4-40-36.8 19.2c-4.8 3.2-9.6 3.2-14.4 0l-36.8-19.2 6.4 40c1.6 4.8-1.6 11.2-4.8 14.4l-28.8 28.8 33.6 4.8c9.6 1.6 17.6 6.4 20.8 16l14.4 30.4 14.4-30.4c4.8-8 11.2-14.4 20.8-14.4l35.2-4.8-25.6-30.4zM512 683.2c-145.6 0-262.398-118.4-262.398-262.4 0-145.6 118.398-262.4 262.398-262.4 145.6 0 262.403 118.4 262.403 262.4s-116.803 262.4-262.403 262.4zM512 188.8c-128 0-230.398 104-230.398 230.4 0 128 103.998 230.4 230.398 230.4 128 0 230.4-104 230.4-230.4s-102.4-230.4-230.4-230.4z" />
<glyph unicode="&#xe924;" glyph-name="site-tagline" d="M724.797 536l-168 131.2c-27.2 22.4-65.6 20.8-92.8 0l-12.8-9.6c-11.2 25.6-17.6 57.6-17.6 91.2 0 80 36.8 147.2 81.6 147.2 30.4 0 60.8-35.2 73.6-88 1.6-8 11.2-14.4 19.2-11.2 8 1.6 14.4 11.2 11.2 19.2-17.6 68.8-59.2 112-105.6 112-64 0-113.6-78.4-113.6-179.2 0-43.2 9.6-81.6 24-112l-126.4-100.8c-17.6-14.4-28.8-35.2-28.8-59.2v-412.8c0-52.8 43.2-96 96-96h294.4c52.8 0 96 43.2 96 96v412.8c-1.6 24-11.2 44.8-30.4 59.2zM721.597 64c0-35.2-28.8-64-64-64h-292.8c-35.2 0-64 28.8-64 64v412.8c0 12.8 6.4 25.6 16 33.6l123.2 97.6c19.2-25.6 44.8-41.6 72-41.6 9.6 0 16 6.4 16 16s-6.4 16-16 16c-17.6 0-33.6 11.2-48 28.8l17.6 12.8c8 6.4 17.6 9.6 27.2 9.6s19.2-3.2 27.2-9.6l168-131.2c11.2-8 16-20.8 16-33.6v-411.2h1.6z" />
<glyph unicode="&#xe925;" glyph-name="protection-badge" d="M865.603 833.6l-337.6 92.8c-11.2 1.6-20.8 1.6-32 0l-337.6-92.8c-25.6-6.4-43.2-30.4-43.2-56v-246.4c0-248 147.2-467.2 374.4-558.4 6.4-3.2 14.4-4.8 22.4-4.8s14.4 1.6 22.4 4.8c227.2 91.2 374.4 312 374.4 560v244.8c-1.6 25.6-19.2 49.6-43.2 56zM875.203 532.8c0-232-142.4-444.8-353.6-529.6-6.4-3.2-14.4-3.2-20.8 0-214.4 86.4-352 292.8-352 528v246.4c0 11.2 8 22.4 19.2 25.6l337.6 92.8c1.6 0 4.8 0 6.4 0s4.8 0 6.4-1.6l337.6-92.8c11.2-3.2 19.2-14.4 19.2-25.6v-243.2zM712 587.2l-241.6-203.2-116.8 97.6c-6.4 6.4-17.6 4.8-22.4-1.6-6.4-6.4-4.8-17.6 1.6-22.4l126.4-105.6c3.2-3.2 6.4-3.2 9.6-3.2s8 1.6 9.6 3.2l252.8 212.8c6.4 6.4 8 16 1.6 22.4-3.2 4.8-12.8 6.4-20.8 0z" />
<glyph unicode="&#xe926;" glyph-name="search" d="M985.6 38.4l-283.197 243.2c115.2 147.2 103.997 360-30.403 494.4-70.4 70.4-164.8 110.4-265.6 110.4-100.798 0-193.598-38.4-265.598-110.4-145.6-145.6-145.6-384 0-529.6 70.4-70.4 164.8-110.4 265.598-110.4 100.8 0 193.6 38.4 265.6 110.4 3.2 3.2 6.4 6.4 9.6 11.2l284.803-243.2c3.2-3.2 6.397-3.2 9.597-3.2 4.8 0 9.6 1.6 12.8 6.4 4.8 4.8 4.8 14.4-3.2 20.8zM648 268.8c-64-64-150.4-100.8-241.6-100.8-91.198 0-177.598 35.2-241.598 100.8-132.8 134.4-132.8 350.4 0 484.8 64 64 150.4 100.8 241.598 100.8 91.2 0 177.6-35.2 241.6-100.8 134.4-132.8 134.4-350.4 0-484.8z" />
<glyph unicode="&#xe927;" glyph-name="product-cart" d="M977.603 105.6l-81.6 713.6c-8 62.4-59.2 108.8-123.2 108.8h-521.6c-64 0-115.2-46.4-123.2-108.8l-81.6-713.6c-4.8-35.2 6.4-70.4 30.4-96s57.6-41.6 91.2-41.6h688c35.2 0 68.8 14.4 91.2 41.6s35.2 60.8 30.4 96zM923.203 30.4c-17.6-19.2-41.6-30.4-67.2-30.4h-688c-25.6 0-51.2 11.2-67.2 30.4-17.6 19.2-25.6 44.8-22.4 70.4l81.6 715.2c4.8 46.4 44.8 80 91.2 80h523.2c46.4 0 84.8-35.2 91.2-80l81.6-713.6c1.6-27.2-6.4-52.8-24-72zM676.8 702.4c-8-1.6-14.4-9.6-12.8-19.2 1.6-11.2 3.2-22.4 3.2-33.6 0-86.4-70.4-156.8-156.8-156.8s-156.8 70.4-156.8 156.8c0 11.2 1.6 22.4 3.2 33.6 1.6 8-3.2 17.6-12.8 19.2-8 1.6-17.6-3.2-19.2-12.8-3.2-12.8-4.8-27.2-4.8-40 0-104 84.8-188.8 188.8-188.8s188.8 84.8 188.8 188.8c0 12.8-1.6 25.6-4.8 40 1.6 8-6.4 14.4-16 12.8z" />
<glyph unicode="&#xe928;" glyph-name="slider" d="M912 497.6h-800c-44.8 0-80-35.2-80-80v-369.6c0-44.8 35.2-80 80-80h800c44.8 0 80 35.2 80 80v369.6c0 44.8-35.2 80-80 80zM960 48c0-27.2-20.8-48-48-48h-800c-27.2 0-48 20.8-48 48v369.6c0 27.2 20.8 48 48 48h800c27.2 0 48-20.8 48-48v-369.6zM148.797 614.4h726.4c9.6 0 16 6.4 16 16s-6.4 16-16 16h-726.4c-9.6 0-16-6.4-16-16s6.4-16 16-16zM228.797 755.2h566.4c9.6 0 16 6.4 16 16s-6.4 16-16 16h-566.4c-9.6 0-16-6.4-16-16s8-16 16-16zM307.203 896h409.6c9.6 0 16 6.4 16 16s-6.4 16-16 16h-409.6c-9.6 0-16-6.4-16-16s8-16 16-16z" />
<glyph unicode="&#xe929;" glyph-name="page-title" d="M884.8 928h-745.6c-59.2 0-107.2-48-107.2-107.2v-40c0-9.6 6.4-16 16-16s16 6.4 16 16v40c0 41.6 33.6 75.2 75.2 75.2h356.8v-896h-188.8c-9.6 0-16-6.4-16-16s6.4-16 16-16h409.6c9.6 0 16 6.4 16 16s-6.4 16-16 16h-188.8v896h356.8c41.6 0 75.2-33.6 75.2-75.2v-40c0-9.6 6.4-16 16-16s16 6.4 16 16v40c0 59.2-48 107.2-107.2 107.2z" />
<glyph unicode="&#xe92a;" glyph-name="team-member" d="M780.797 400c-70.4 83.2-166.4 129.6-268.8 129.6s-198.402-44.8-268.802-129.6c-70.4-83.2-108.8-198.4-112-323.2 0-6.4 3.2-11.2 9.6-14.4 43.2-22.4 201.602-94.4 371.202-94.4 184 0 331.2 72 372.8 94.4 4.8 3.2 8 8 8 14.4-1.6 126.4-41.6 240-112 323.2zM511.997 0c-152 0-296.002 60.8-348.802 86.4 3.2 113.6 40 217.6 104 292.8 64.002 76.8 150.402 118.4 244.802 118.4 92.8 0 180.8-41.6 244.8-118.4 64-75.2 100.8-179.2 104-294.4-49.6-24-184-84.8-348.8-84.8zM511.994 531.2c108.8 0 198.4 89.6 198.4 198.4s-89.6 198.4-198.4 198.4c-108.8 0-198.4-89.6-198.4-198.4s89.6-198.4 198.4-198.4zM511.994 896c91.2 0 166.4-75.2 166.4-166.4s-75.2-166.4-166.4-166.4c-91.2 0-166.4 75.2-166.4 166.4s75.2 166.4 166.4 166.4z" />
<glyph unicode="&#xe92b;" glyph-name="post-info" d="M731.203 172.8c-9.6 0-16-6.4-16-16v-56c0-9.6 6.4-16 16-16s16 6.4 16 16v56c0 9.6-6.4 16-16 16zM731.2 417.6c-11.2 0-22.4-1.6-32-3.2-1.6 1.6-3.197 4.8-4.797 6.4-67.2 80-160.003 124.8-259.203 124.8 105.6 0 190.4 86.4 190.4 192s-86.4 192-192 192c-105.6 0-191.998-86.4-191.998-192s86.398-192 190.398-192c-99.2 0-191.998-44.8-259.198-124.8s-105.6-190.4-107.2-312c0-6.4 3.2-11.2 9.6-14.4 43.2-20.8 195.2-91.2 358.398-91.2 49.6 0 100.8 6.4 153.6 17.6 38.403-32 89.6-52.8 144-52.8 123.2 0 224 100.8 224 224s-99.197 225.6-224 225.6zM275.202 736c0 88 71.998 160 159.998 160s160-72 160-160c0-88-72-160-160-160-88 1.6-159.998 72-159.998 160zM100.802 118.4c3.2 110.4 38.4 209.6 99.2 281.6 62.4 73.6 145.598 113.6 235.198 113.6 86.4 0 168-38.4 228.8-107.2-91.2-28.8-156.8-113.6-156.8-214.4 0-56 20.8-105.6 52.8-145.6-43.2-8-84.8-12.8-126.4-12.8-143.998 1.6-281.598 60.8-332.798 84.8zM731.2 0c-105.597 0-192 86.4-192 192s86.403 192 192 192c105.6 0 192-86.4 192-192s-86.4-192-192-192zM731.203 209.6c8.835 0 16 7.162 16 16 0 8.835-7.165 16-16 16s-16-7.165-16-16c0-8.838 7.165-16 16-16z" />
<glyph unicode="&#xe92c;" glyph-name="navigation" d="M48 696h928c9.6 0 16 6.4 16 16s-6.4 16-16 16h-928c-9.6 0-16-6.4-16-16s6.4-16 16-16zM976 464h-928c-9.6 0-16-6.4-16-16s6.4-16 16-16h928c9.6 0 16 6.4 16 16s-6.4 16-16 16zM976 200h-928c-9.6 0-16-6.4-16-16s6.4-16 16-16h928c9.6 0 16 6.4 16 16s-6.4 16-16 16z" />
<glyph unicode="&#xe92d;" glyph-name="post-media" d="M880 928h-736c-62.4 0-112-49.6-112-112v-736c0-62.4 49.6-112 112-112h736c62.4 0 112 49.6 112 112v736c0 62.4-49.6 112-112 112zM260.8 464h-196.8v203.2h196.8v-203.2zM64 432h196.8v-203.2h-196.8v203.2zM292.8 896h440v-896h-440v896zM960 464h-196.8v203.2h196.8v-203.2zM763.2 432h196.8v-203.2h-196.8v203.2zM960 816v-116.8h-196.8v196.8h116.8c44.8 0 80-35.2 80-80zM144 896h116.8v-196.8h-196.8v116.8c0 44.8 35.2 80 80 80zM64 80v116.8h196.8v-196.8h-116.8c-44.8 0-80 35.2-80 80zM880 0h-116.8v196.8h196.8v-116.8c0-44.8-35.2-80-80-80zM630.397 481.6l-152 92.8c-12.8 8-27.2 8-38.4 0-12.8-6.4-19.2-19.2-19.2-33.6v-184c0-14.4 8-27.2 19.2-33.6 6.4-3.2 12.8-4.8 19.2-4.8s14.4 1.6 19.2 6.4l152 92.8c11.2 6.4 19.2 19.2 19.2 33.6s-8 22.4-19.2 30.4zM614.397 441.6l-152-92.8c-3.2-1.6-4.8-1.6-6.4 0-1.6 0-3.2 1.6-3.2 6.4v185.6c0 3.2 1.6 4.8 3.2 6.4 0 0 1.6 1.6 3.2 1.6s1.6 0 3.2-1.6l152-92.8c3.2-1.6 3.2-4.8 3.2-6.4s-1.6-3.2-3.2-6.4z" />
<glyph unicode="&#xe92e;" glyph-name="copyright" d="M512-32c265.098 0 480 214.902 480 480s-214.902 480-480 480c-265.097 0-480-214.903-480-480s214.903-480 480-480zM512-64c-282.77 0-512 229.229-512 512s229.23 512 512 512c282.771 0 512-229.23 512-512s-229.229-512-512-512zM275.75 458.189c0-17.251 2.188-32.877 6.563-46.877 4.375-13.875 10.5-25.686 18.375-35.437 8-9.75 17.563-17.312 28.689-22.688 11.248-5.251 23.622-7.875 37.123-7.875 11.75 0 22.25 2.125 31.501 6.374 9.376 4.25 17.437 9.814 24.189 16.688 6.749 7.002 12.186 14.877 16.31 23.626s6.877 17.626 8.25 26.624h35.626c-0.749-8-2.499-16.186-5.248-24.56-2.627-8.253-6.253-16.314-10.877-24.189-4.499-7.75-9.936-15.126-16.314-22.125-6.374-6.877-13.747-12.877-22.125-18-8.25-5.126-17.498-9.187-27.747-12.189-10.253-2.998-21.44-4.499-33.565-4.499-8.374 0-17.373 0.874-26.998 2.624-9.501 1.75-19.002 4.688-28.501 8.813-9.375 4.125-18.437 9.626-27.188 16.499-8.625 7.002-16.25 15.75-22.875 26.253-6.625 10.499-11.938 22.874-15.938 37.123-4 14.374-6 31.062-6 50.064 0 18.624 1.75 35.248 5.25 49.875 3.625 14.624 8.5 27.373 14.625 38.25 6.25 10.998 13.5 20.31 21.75 27.936 8.375 7.626 17.313 13.814 26.812 18.563s19.375 8.189 29.625 10.314c10.25 2.125 20.438 3.187 30.563 3.187 12.499 0 23.875-1.312 34.125-3.939 10.374-2.499 19.626-6 27.75-10.499 8.25-4.374 15.437-9.501 21.562-15.376s11.251-12.125 15.376-18.749c4.25-6.499 7.498-13.187 9.75-20.064 2.374-6.874 3.811-13.562 4.31-20.061h-36c-2.374 8.874-5.875 16.813-10.499 23.811-4.624 7.002-10.25 12.877-16.874 17.626-6.502 4.877-13.875 8.563-22.125 11.062-8.128 2.624-16.877 3.939-26.253 3.939-14.125 0-26.938-2.627-38.435-7.875-11.376-5.251-21.126-12.752-29.251-22.502-8.125-9.747-14.375-21.562-18.75-35.437-4.375-13.75-6.563-29.187-6.563-46.31zM553.251 458.189c0-17.251 2.186-32.877 6.56-46.877 4.378-13.875 10.502-25.686 18.378-35.437 8-9.75 17.562-17.312 28.685-22.688 11.251-5.251 23.626-7.875 37.126-7.875 11.75 0 22.25 2.125 31.501 6.374 9.373 4.25 17.437 9.814 24.186 16.688 6.752 7.002 12.189 14.877 16.314 23.626s6.874 17.626 8.25 26.624h35.626c-0.749-8-2.499-16.186-5.251-24.56-2.624-8.253-6.25-16.314-10.874-24.189-4.499-7.75-9.939-15.126-16.314-22.125-6.374-6.877-13.75-12.877-22.125-18-8.25-5.126-17.501-9.187-27.75-12.189-10.25-2.998-21.437-4.499-33.562-4.499-8.374 0-17.376 0.874-27.002 2.624-9.498 1.75-18.998 4.688-28.499 8.813-9.373 4.125-18.435 9.626-27.187 16.499-8.624 7.002-16.25 15.75-22.874 26.253-6.627 10.499-11.939 22.874-15.939 37.123-4 14.374-6 31.062-6 50.064 0 18.624 1.75 35.248 5.251 49.875 3.626 14.624 8.499 27.373 14.624 38.25 6.25 10.998 13.501 20.31 21.75 27.936 8.374 7.626 17.312 13.814 26.813 18.563s19.376 8.189 29.626 10.314c10.25 2.125 20.438 3.187 30.563 3.187 12.499 0 23.872-1.312 34.125-3.939 10.374-2.499 19.622-6 27.75-10.499 8.25-4.374 15.437-9.501 21.562-15.376s11.248-12.125 15.373-18.749c4.253-6.499 7.501-13.187 9.75-20.064 2.378-6.874 3.814-13.562 4.314-20.061h-36c-2.374 8.874-5.875 16.813-10.499 23.811-4.627 7.002-10.25 12.877-16.877 17.626-6.499 4.877-13.875 8.563-22.125 11.062-8.125 2.624-16.874 3.939-26.25 3.939-14.125 0-26.938-2.627-38.438-7.875-11.373-5.251-21.123-12.752-29.248-22.502-8.125-9.747-14.374-21.562-18.752-35.437-4.374-13.75-6.56-29.187-6.56-46.31z" />
<glyph unicode="&#xe92f;" glyph-name="header" horiz-adv-x="956" d="M832.853 960h-709.975c-51.2 0-90.453-40.96-90.453-90.453v-97.28c0-10.24 6.827-17.067 17.067-17.067s17.067 6.827 17.067 17.067v97.28c0 30.72 23.893 56.32 56.32 56.32h244.055v-955.733h-124.588c-10.24 0-17.067-6.827-17.067-17.067s6.827-17.067 17.067-17.067h472.748c10.24 0 17.067 6.827 17.067 17.067s-6.827 17.067-17.067 17.067h-124.59v955.733h244.057c30.72 0 56.32-25.6 56.32-56.32v-97.28c0-10.24 6.827-17.067 17.067-17.067s17.067 6.827 17.067 17.067v97.28c-1.707 49.493-40.96 90.453-92.16 90.453zM556.373-29.867h-155.307v955.733h155.307v-955.733z" />
<glyph unicode="&#xe930;" glyph-name="bricks" d="M928 472h-65.6v116.8c0 48-40 88-88 88h-524.8c-48 0-88-40-88-88v-116.8h-65.6c-40 0-72-32-72-72v-108.8c0-40 32-72 72-72h832c40 0 72 32 72 72v108.8c0 40-32 72-72 72zM814.4 588.8v-116.8h-278.4v156.8h238.4c22.4 0 40-19.2 40-40zM656 424v-156.8h-288v156.8h288zM209.6 588.8c0 22.4 17.6 40 40 40h238.4v-156.8h-278.4v116.8zM72 291.2v108.8c0 12.8 11.2 24 24 24h224v-156.8h-224c-12.8 0-24 11.2-24 24zM952 291.2c0-12.8-11.2-24-24-24h-224v156.8h224c12.8 0 24-11.2 24-24v-108.8z" />
</font>
</defs>
</svg>
